PDA

View Full Version : Sega CD Cue Maker



XMARLTONX
08-01-2007, 02:43 PM
I came across this nifty program for the PC. However, like a few of you on here, I have a mac.

I know that .cue are .txt files renamed. I found this example on here in another thread:

Symos here is the cue file for sonic cd USA

FILE "Sonic the Hedgehog CD (US) - Track 01.iso" BINARY
TRACK 01 MODE1/2048
INDEX 01 00:00:00
POSTGAP 00:02:00
FILE "Sonic the Hedgehog CD (US) - Track 02.wav" WAVE
TRACK 02 AUDIO
PREGAP 00:02:00
INDEX 01 00:00:00
FILE "Sonic the Hedgehog CD (US) - Track 03.wav" WAVE
TRACK 03 AUDIO
INDEX 01 00:00:00
FILE "Sonic the Hedgehog CD (US) - Track 04.wav" WAVE
TRACK 04 AUDIO
INDEX 01 00:00:00
FILE "Sonic the Hedgehog CD (US) - Track 05.wav" WAVE
TRACK 05 AUDIO
INDEX 01 00:00:00
FILE "Sonic the Hedgehog CD (US) - Track 06.wav" WAVE
TRACK 06 AUDIO
INDEX 01 00:00:00
FILE "Sonic the Hedgehog CD (US) - Track 07.wav" WAVE
TRACK 07 AUDIO
INDEX 01 00:00:00
FILE "Sonic the Hedgehog CD (US) - Track 08.wav" WAVE
TRACK 08 AUDIO
INDEX 01 00:00:00
FILE "Sonic the Hedgehog CD (US) - Track 09.wav" WAVE
TRACK 09 AUDIO
INDEX 01 00:00:00
FILE "Sonic the Hedgehog CD (US) - Track 10.wav" WAVE
TRACK 10 AUDIO
INDEX 01 00:00:00
FILE "Sonic the Hedgehog CD (US) - Track 11.wav" WAVE
TRACK 11 AUDIO
INDEX 01 00:00:00
FILE "Sonic the Hedgehog CD (US) - Track 12.wav" WAVE
TRACK 12 AUDIO
INDEX 01 00:00:00
FILE "Sonic the Hedgehog CD (US) - Track 13.wav" WAVE
TRACK 13 AUDIO
INDEX 01 00:00:00
FILE "Sonic the Hedgehog CD (US) - Track 14.wav" WAVE
TRACK 14 AUDIO
INDEX 01 00:00:00
FILE "Sonic the Hedgehog CD (US) - Track 15.wav" WAVE
TRACK 15 AUDIO
INDEX 01 00:00:00
FILE "Sonic the Hedgehog CD (US) - Track 16.wav" WAVE
TRACK 16 AUDIO
INDEX 01 00:00:00
FILE "Sonic the Hedgehog CD (US) - Track 17.wav" WAVE
TRACK 17 AUDIO
INDEX 01 00:00:00
FILE "Sonic the Hedgehog CD (US) - Track 18.wav" WAVE
TRACK 18 AUDIO
INDEX 01 00:00:00
FILE "Sonic the Hedgehog CD (US) - Track 19.wav" WAVE
TRACK 19 AUDIO
INDEX 01 00:00:00
FILE "Sonic the Hedgehog CD (US) - Track 20.wav" WAVE
TRACK 20 AUDIO
INDEX 01 00:00:00
FILE "Sonic the Hedgehog CD (US) - Track 21.wav" WAVE
TRACK 21 AUDIO
INDEX 01 00:00:00
FILE "Sonic the Hedgehog CD (US) - Track 22.wav" WAVE
TRACK 22 AUDIO
INDEX 01 00:00:00
FILE "Sonic the Hedgehog CD (US) - Track 23.wav" WAVE
TRACK 23 AUDIO
INDEX 01 00:00:00
FILE "Sonic the Hedgehog CD (US) - Track 24.wav" WAVE
TRACK 24 AUDIO
INDEX 01 00:00:00
FILE "Sonic the Hedgehog CD (US) - Track 25.wav" WAVE
TRACK 25 AUDIO
INDEX 01 00:00:00
FILE "Sonic the Hedgehog CD (US) - Track 26.wav" WAVE
TRACK 26 AUDIO
INDEX 01 00:00:00
FILE "Sonic the Hedgehog CD (US) - Track 27.wav" WAVE
TRACK 27 AUDIO
INDEX 01 00:00:00
FILE "Sonic the Hedgehog CD (US) - Track 28.wav" WAVE
TRACK 28 AUDIO
INDEX 01 00:00:00
FILE "Sonic the Hedgehog CD (US) - Track 29.wav" WAVE
TRACK 29 AUDIO
INDEX 01 00:00:00
FILE "Sonic the Hedgehog CD (US) - Track 30.wav" WAVE
TRACK 30 AUDIO
INDEX 01 00:00:00
FILE "Sonic the Hedgehog CD (US) - Track 31.wav" WAVE
TRACK 31 AUDIO
INDEX 01 00:00:00
FILE "Sonic the Hedgehog CD (US) - Track 32.wav" WAVE
TRACK 32 AUDIO
INDEX 01 00:00:00
FILE "Sonic the Hedgehog CD (US) - Track 33.wav" WAVE
TRACK 33 AUDIO
INDEX 01 00:00:00
FILE "Sonic the Hedgehog CD (US) - Track 34.wav" WAVE
TRACK 34 AUDIO
INDEX 01 00:00:00
FILE "Sonic the Hedgehog CD (US) - Track 35.wav" WAVE
TRACK 35 AUDIO
INDEX 01 00:00:00

If I were using this as a template I believe I would have to:

1) Rename the file name to whatever mine is
2) Rename the text file I created as .cue
3) Select burn img and pick .cue?

This would be much easier to do on a PC than a mac, as much as I hate to admit it.

If this is not allowed on here, than I sincerely apologize. I noticed a few threads about this, and with the open dicussion of the mega cart, and support of emulators, I figured it would be ok.

evildragon
08-01-2007, 03:26 PM
Macs don't have a utility to burn CUE files unless it's with a BIN file.. Sorry, you'll need Nero and a Windows computer..

XMARLTONX
08-01-2007, 03:28 PM
Macs don't have a utility to burn CUE files unless it's with a BIN file.. Sorry, you'll need Nero and a Windows computer..

Really? I figured with Toast 8 it wouldn't be a problem, Toast 8 says as long as you add the .cue, it adds the other files and burns them accordingly.

Nice website btw, what kinda mac do you have?

evildragon
08-01-2007, 03:34 PM
mine doest, it just says the CUE is corrupted..

unless there's another update to toast (i think i have 7 Titanium)? (i remember it USED to exist with toast 5 and it was removed.. perhaps they added it back it)

XMARLTONX
08-01-2007, 03:41 PM
I have Toast 8 Titanium and I think its compatiable.

Assuming it is, could you tell me if I have it right in terms of how to do it? Perhaps maybe you could shoot me a PM or something and I'll try it out tonight and let you know how it turns out.

The update to Toast is able to be purchased by users with 7 and I think its somewhat inexpensive, worth the purchase too.

evildragon
08-01-2007, 03:49 PM
I got Nero on my PCs, I won't need to update Toast.. Toast is just installed for atleast basic CD-ROM/DVD burning facilities..

your idea is right, but don't forget, if you have more tracks, you'll need to add lines (and the index, track information, etc), and if you have less, you'll need to remove it..

XMARLTONX
08-01-2007, 04:05 PM
You are correct in that it will only work with a .cue file along with a bin. It does not support .cue and iso's =(

evildragon
08-01-2007, 04:08 PM
I figured that.. ;) Roxio went down the drains when they bought out Adaptec, the ones who invented the damned thing...

Ahead Nero is the BEST you can get, supports literally almost everything...

XMARLTONX
08-01-2007, 04:18 PM
I figured that.. ;) Roxio went down the drains when they bought out Adaptec, the ones who invented the damned thing...

Ahead Nero is the BEST you can get, supports literally almost everything...

Yeah, I got that on a windows machine back home, guess I'll be taking my CDX for a ride in a few weeks =) Thanks for the help!

0x15e
08-01-2007, 04:28 PM
Isn't there a cdrdao port for OSX? Does it support the full cue spec? It might take some reading, but I remember seeing a guide for burning Saturn games (in bin/cue format), so I'd expect it would work for Sega CD too.

evildragon
08-01-2007, 04:32 PM
Roxio will do BIN/CUE, but this user wants CUE/ISO/WAV burning abilities.. Roxio won't allow this...

There was a CD burning utility for OS X that was, but it used X11 and crashed all the time, and sometimes left me with NO drives working and had to reboot.. it was too buggy..

Joe Redifer
08-01-2007, 04:42 PM
Screw Roxio. There needs to be other OS X products that will allow it. It's not the the OS isn't capable, it's just that apprently it's attracting the wrong developers.

XMARLTONX
08-02-2007, 12:06 AM
Maybe that freeware product Burn.... lemme give it a try.

XMARLTONX
08-02-2007, 12:07 AM
Roxio will do BIN/CUE, but this user wants CUE/ISO/WAV burning abilities.. Roxio won't allow this...

There was a CD burning utility for OS X that was, but it used X11 and crashed all the time, and sometimes left me with NO drives working and had to reboot.. it was too buggy..

I'd use bin/cue but most games happen to be in .iso format, its a pain to hunt em down.

Whats this? CueMaker (http://www.macupdate.com/info.php/id/15712/cuemaker)